Скачать Мой создатель / Archive (Гэвин Ротери) [2020, Фантастика, драма, BDRip-AVC] | HDRezka Studio | (Dub : iTunes) в Тас-икс (Tas-ix)

DL-List and Torrent activity
Size:  1.4 GB   |    Registered:  12 days   |    Completed:  9 times
Seeders:  4  [  0 KB/s  ]   Show peers in full details
   
 
Author Message

tohirali ®

Gender: Male

Longevity: 4 years 1 month

Posts: 758

Репутация: 249 [+]

Наличие запрета:

[Profile] [PM]

Post 19-Nov-2020 13:26

[Quote]

-Мой создатель / Archive-- Информация о фильме
Название: Мой создатель
Оригинальное название: Archive
Год выпуска:: 2020
Жанр: Фантастика, драма-Режиссер: Гэвин Ротери
В ролях: Рона Митра, Тео Джеймс, Тоби Джонс, Стэйси Мартин, Питер Фердинандо, Ричард Гловер, Ханс Петерсон, Джереми Вилер, Тимея Мадай Кинга
О фильме:
2046-ой год. Время невероятных технологических открытий, могущественных корпораций и торжества искусственного интеллекта. Молодой ученый, работающий на корпорацию в секретной лаборатории, занимается поиском секрета вечной жизни, попутно собирая робота, в которого собирается загрузить сознание погибшей жены. Когда объект перестает выходить на связь, корпорация отправляет туда команду зачистки.
-
Страна: Великобритания, Венгрия, США
Студия: Independent, Hero Squared, Head Gear Films
Продолжительность: 01:49:01
Перевод: Дублированный | iTunes + Профессиональный многоголосый | HDRezka Studio
Субтитры: Русские (Forced, full), английские-Файл
Формат: Matroska
Качество: BDRip-AVC [Archive.2020.BDREMUX.1080p]
Видео: 818x340 at 24.000 fps, x264@L4.1, ~1713 kbps, 0.257 bpp
Аудио #1: AAC, 2 ch, ~96 kbps - | Русский | - DUB
Аудио #2: AAC, 2 ch, ~96 kbps - | Русский | - MVO
Формат субтитров: softsub (SRT)

MI

General
Unique ID : 133480618669314042058535969730322978194 (0x646B6E9AC4584A86661134FBFF2B5592)
Complete name : F:\My computer\For upload\,Vremyanka stuffs\Мой создатель.(2020).WEB-DLRip-AVC.AMZN.[-=DoMiNo=-].mkv
Format : Matroska
Format version : Version 4 / Version 2
File size : 1.40 GiB
Duration : 1h 49mn
Overall bit rate : 1 836 Kbps
Movie name : Мой создатель.(2020).WEB-DLRip-AVC.[-=DoMiNo=-]
Encoded date : UTC 2020-09-10 05:31:01
Writing application : mkvmerge v50.0.0 ('Awakenings') 64-bit
Writing library : libebml v1.4.0 + libmatroska v1.6.2
DURATION : 01:42:27.164000000
NUMBER_OF_FRAMES : 1035
NUMBER_OF_BYTES : 53278
_STATISTICS_WRITING_APP : mkvmerge v50.0.0 ('Awakenings') 64-bit
_STATISTICS_WRITING_DATE_UTC : 2020-09-10 05:31:01
_STATISTICS_TAGS : BPS DURATION NUMBER_OF_FRAMES NUMBER_OF_BYTES
Attachment : Yes / Yes
Video
ID : 1
Format : AVC
Format/Info : Advanced Video Codec
Format profile : High@L4.1
Format settings, CABAC : Yes
Format settings, ReFrames : 12 frames
Codec ID : V_MPEG4/ISO/AVC
Duration : 1h 49mn
Bit rate : 1 452 Kbps
Width : 960 pixels
Height : 428 pixels
Display aspect ratio : 2.25:1
Frame rate mode : Constant
Frame rate : 23.976 fps
Color space : YUV
Chroma subsampling : 4:2:0
Bit depth : 8 bits
Scan type : Progressive
Bits/(Pixel*Frame) : 0.147
Stream size : 1.08 GiB (77%)
Title : -=DoMiNo=-
Writing library : x264 core 161 r3018 db0d417
Encoding settings : cabac=1 / ref=12 / deblock=1:-3:-3 / analyse=0x3:0x133 / me=umh / subme=10 / psy=1 / psy_rd=1.00:0.00 / mixed_ref=1 / me_range=32 / chroma_me=1 / trellis=2 / 8x8dct=1 / cqm=0 / deadzone=21,11 / fast_pskip=0 / chroma_qp_offset=-2 / threads=6 / lookahead_threads=1 / sliced_threads=0 / nr=0 / decimate=0 / interlaced=0 / bluray_compat=0 / constrained_intra=0 / bframes=12 / b_pyramid=2 / b_adapt=2 / b_bias=0 / direct=3 / weightb=1 / open_gop=0 / weightp=2 / keyint=250 / keyint_min=23 / scenecut=40 / intra_refresh=0 / rc_lookahead=60 / rc=2pass / mbtree=0 / bitrate=1452 / ratetol=1.0 / qcomp=0.60 / qpmin=0 / qpmax=69 / qpstep=4 / cplxblur=20.0 / qblur=0.5 / vbv_maxrate=50000 / vbv_bufsize=62500 / nal_hrd=none / filler=0 / ip_ratio=1.40 / pb_ratio=1.30 / aq=3:0.80
Language : English
Default : Yes
Forced : No
DURATION : 01:49:17.343000000
NUMBER_OF_FRAMES : 157219
NUMBER_OF_BYTES : 1188674748
_STATISTICS_WRITING_APP : mkvmerge v50.0.0 ('Awakenings') 64-bit
_STATISTICS_WRITING_DATE_UTC : 2020-09-10 05:31:01
_STATISTICS_TAGS : BPS DURATION NUMBER_OF_FRAMES NUMBER_OF_BYTES
Color primaries : BT.709
Transfer characteristics : BT.709
Matrix coefficients : BT.709
Audio
ID : 2
Format : AC-3
Format/Info : Audio Coding 3
Mode extension : CM (complete main)
Format settings, Endianness : Big
Codec ID : A_AC3
Duration : 1h 49mn
Bit rate mode : Constant
Bit rate : 384 Kbps
Channel(s) : 6 channels
Channel positions : Front: L C R, Side: L R, LFE
Sampling rate : 48.0 KHz
Bit depth : 16 bits
Compression mode : Lossy
Stream size : 300 MiB (21%)
Title : DUB_[iTunes]
Language : Russian
Default : Yes
Forced : No
Text #1
ID : 3
Format : UTF-8
Codec ID : S_TEXT/UTF8
Codec ID/Info : UTF-8 Plain Text
Title : Forced
Language : Russian
Default : Yes
Forced : No
Text #2
ID : 4
Format : UTF-8
Codec ID : S_TEXT/UTF8
Codec ID/Info : UTF-8 Plain Text
Title : Full
Language : Russian
Default : No
Forced : No
Text #3
ID : 5
Format : UTF-8
Codec ID : S_TEXT/UTF8
Codec ID/Info : UTF-8 Plain Text
Language : English
Default : No
Forced : No
Text #4
ID : 6
Format : UTF-8
Codec ID : S_TEXT/UTF8
Codec ID/Info : UTF-8 Plain Text
Title : SDH
Language : English
Default : No
Forced : No
Menu
00:00:00.000 : :Глава 01
00:05:30.000 : :Глава 02
00:11:00.000 : :Глава 03
00:16:30.000 : :Глава 04
00:22:00.000 : :Глава 05
00:27:30.000 : :Глава 06
00:33:00.000 : :Глава 07
00:38:30.000 : :Глава 08
00:44:00.000 : :Глава 09
00:49:30.000 : :Глава 10
00:55:00.000 : :Глава 11
01:00:30.000 : :Глава 12
01:06:00.000 : :Глава 13
01:11:30.000 : :Глава 14
01:17:00.000 : :Глава 15
01:22:30.000 : :Глава 16
01:28:00.000 : :Глава 17
01:33:30.000 : :Глава 18
01:39:00.000 : :Глава 19
01:44:30.000 : :Глава 20

Скриншоты

[202910.mytorrents.biz].t680945.torrent
 GOLD TORRENT! DOWNLOAD TRAFFIC DOES NOT CONSIDER! 
Осталось: [ 19-Dec-2020 13:28 ]
Torrent: Registered [ 2020-11-19 13:26 ] · 59C28B519EB20D28AE6D604EC12E18A521E345DF

Download .torrent

Download


Помочь трекеру

Status: checked
Size: 1.4 GB   (Completed: 9 times)
Rate: 
(Vote: 0)
Has thanked: 2  Thanks   (List)
Золото/Серебро:

Инструкция
Похожие темы
Display posts:    
Reply to topic

Current time is: 01-Dec 22:59

All times are UTC + 5



You cannot post new topics in this forum
You cannot reply to topics in this forum
You cannot edit your posts in this forum
You cannot delete your posts in this forum
You cannot vote in polls in this forum
You cannot attach files in this forum
You cannot download files in this forum